Chievo vs Udinese | Virus Buster Serge | Bright Bright (2017) Watch Online in Full length! Watch Bright Online In Bright, Set in a world where mystical creatures live side by side with humans. A human cop is forced to work with an Orc to find a weapon everyone is prepared to kill for. This movie was released in the year 2017. You may enjoy streaming it as it features Action, Crime, Fantasy, Sci-Fi, Thriller ...
Jab Harry Met Sejal (2017) 720p WebHD-Rip Hindi x264 AAC Mafiaking M2Tv




Jab Harry Met Sejal (2017) 720p WebHD-Rip Hindi x264 AAC Mafiaking M2Tv


Jab Harry Met Sejal (2017) 720p WebHD-Rip Hindi x264 AAC Mafiaking M2Tv








Jab Harry Met Sejal (2017) 720p WebHD-Rip Hindi x264 AAC Mafiaking M2Tv



Ratings: 5.8/10

Genere: Comedy, Drama, Romance 

General
Unique ID : 236192238365739223483308570596234306252 (0xB1B0F86F69FAE5268B9FDA7A52B922CC)
Complete name : Jab Harry Met Sejal (2017) 720p WebHD-Rip Hindi x264 AAC Mafiaking M2Tv.mkv
Format : Matroska
Format version : Version 4 / Version 2
File size : 1.01 GiB
Duration : 2 h 17 min
Overall bit rate : 1 054 kb/s
Movie name : Jab Harry Met Sejal (2017) 720p WebHD-Rip Hindi x264 AAC Mafiaking M2Tv

Video
ID : 1
Format : AVC
Format/Info : Advanced Video Codec
Format profile : [email protected]
Format settings, CABAC : Yes
Format settings, RefFrames : 4 frames
Codec ID : V_MPEG4/ISO/AVC
Duration : 2 h 17 min
Bit rate : 926 kb/s
Width : 1 280 pixels
Height : 536 pixels
Frame rate : 25.000 FPS
Stream size : 909 MiB (88%)
Title : Mafiaking
Language : Hindi
Default : Yes
Forced : No

Audio
ID : 2
Format : AAC
Duration : 2 h 17 min
Bit rate : 126 kb/s
Channel(s) : 2 channels
Stream size : 123 MiB (12%)
Title : Mafiaking
Language : Hindi
Default : Yes
Forced : No

**To View Image In Full Size Click on Thumbnails**

Jab Harry Met Sejal (2017) 720p WebHD-Rip Hindi x264 AAC Mafiaking M2Tv Jab Harry Met Sejal (2017) 720p WebHD-Rip Hindi x264 AAC Mafiaking M2Tv Jab Harry Met Sejal (2017) 720p WebHD-Rip Hindi x264 AAC Mafiaking M2Tv Jab Harry Met Sejal (2017) 720p WebHD-Rip Hindi x264 AAC Mafiaking M2Tv Jab Harry Met Sejal (2017) 720p WebHD-Rip Hindi x264 AAC Mafiaking M2Tv Jab Harry Met Sejal (2017) 720p WebHD-Rip Hindi x264 AAC Mafiaking M2Tv Jab Harry Met Sejal (2017) 720p WebHD-Rip Hindi x264 AAC Mafiaking M2Tv Jab Harry Met Sejal (2017) 720p WebHD-Rip Hindi x264 AAC Mafiaking M2Tv Jab Harry Met Sejal (2017) 720p WebHD-Rip Hindi x264 AAC Mafiaking M2Tv Jab Harry Met Sejal (2017) 720p WebHD-Rip Hindi x264 AAC Mafiaking M2Tv Jab Harry Met Sejal (2017) 720p WebHD-Rip Hindi x264 AAC Mafiaking M2Tv Jab Harry Met Sejal (2017) 720p WebHD-Rip Hindi x264 AAC Mafiaking M2Tv Jab Harry Met Sejal (2017) 720p WebHD-Rip Hindi x264 AAC Mafiaking M2Tv Jab Harry Met Sejal (2017) 720p WebHD-Rip Hindi x264 AAC Mafiaking M2Tv



Jab Harry Met Sejal (2017) 720p WebHD-Rip Hindi x264 AAC Mafiaking M2Tv

http://rapidpaid.com/1e5d2ceb8d761b1d/Jab_Harry_Met_Sejal_(2017)_720p_WebHD-Rip_Hindi_x264_AAC_Mafiaking_M2Tv.mkv


Jab Harry Met Sejal (2017) 720p WebHD-Rip Hindi x264 AAC Mafiaking M2Tv
50

Dear visitor, you went to the site as unregistered user.
We recommend you to register or enter the site under your name.
Information
Customers are in the group Guests, can not leave comments in the news.
Adding a comment
Name:*
E-Mail:
Code:
reload, if the code cannot be seen
Enter the code: