Nouveautés | The Bears and I | Ming-Na Wen
[18+] Lipstick Under My Burkha (2017) - 720p - WebHD-Rip - Hindi x264 - AAC Mafiaking M2Tv








[18+] Lipstick Under My Burkha (2017) - 720p - WebHD-Rip - Hindi x264 - AAC Mafiaking M2Tv





Ratings: 7.0/10

Genere: Comedy, Drama 

General
Complete name : Lipstick Under My Burkha (2017) - 720p - WebHD-Rip - Hindi - x264 - AAC - Mafiaking - M2Tv.mkv
Format : Matroska
File size : 977 MiB
Duration : 1 h 59 min
Overall bit rate : 1 147 kb/s
Movie name : Lipstick Under My Burkha (2017) - 720p - WebHD-Rip - Hindi - x264 - AAC - Mafiaking - M2Tv
Video
ID : 1
Format : AVC
Duration : 1 h 59 min
Bit rate : 950 kb/s
Width : 1 280 pixels
Height : 544 pixels
Frame rate : 30.000 FPS
Stream size : 809 MiB (83%)
Title : Mafiaking
Language : Hindi
Default : Yes
Forced : No

Audio
ID : 2
Format : AAC
Duration : 1 h 59 min
Bit rate : 192 kb/s
Channel(s) : 2 channels
Sampling rate : 48.0 kHz
Stream size : 166 MiB (17%)
Title : Mafiaking
Language : Hindi
Default : Yes
Forced : No


**To View Image In Full Size Click on Thumbnails**

[18+] Lipstick Under My Burkha (2017) - 720p - WebHD-Rip - Hindi x264 - AAC Mafiaking M2Tv [18+] Lipstick Under My Burkha (2017) - 720p - WebHD-Rip - Hindi x264 - AAC Mafiaking M2Tv [18+] Lipstick Under My Burkha (2017) - 720p - WebHD-Rip - Hindi x264 - AAC Mafiaking M2Tv [18+] Lipstick Under My Burkha (2017) - 720p - WebHD-Rip - Hindi x264 - AAC Mafiaking M2Tv [18+] Lipstick Under My Burkha (2017) - 720p - WebHD-Rip - Hindi x264 - AAC Mafiaking M2Tv [18+] Lipstick Under My Burkha (2017) - 720p - WebHD-Rip - Hindi x264 - AAC Mafiaking M2Tv [18+] Lipstick Under My Burkha (2017) - 720p - WebHD-Rip - Hindi x264 - AAC Mafiaking M2Tv [18+] Lipstick Under My Burkha (2017) - 720p - WebHD-Rip - Hindi x264 - AAC Mafiaking M2Tv [18+] Lipstick Under My Burkha (2017) - 720p - WebHD-Rip - Hindi x264 - AAC Mafiaking M2Tv [18+] Lipstick Under My Burkha (2017) - 720p - WebHD-Rip - Hindi x264 - AAC Mafiaking M2Tv [18+] Lipstick Under My Burkha (2017) - 720p - WebHD-Rip - Hindi x264 - AAC Mafiaking M2Tv [18+] Lipstick Under My Burkha (2017) - 720p - WebHD-Rip - Hindi x264 - AAC Mafiaking M2Tv [18+] Lipstick Under My Burkha (2017) - 720p - WebHD-Rip - Hindi x264 - AAC Mafiaking M2Tv [18+] Lipstick Under My Burkha (2017) - 720p - WebHD-Rip - Hindi x264 - AAC Mafiaking M2Tv [18+] Lipstick Under My Burkha (2017) - 720p - WebHD-Rip - Hindi x264 - AAC Mafiaking M2Tv



[18+] Lipstick Under My Burkha (2017) - 720p - WebHD-Rip - Hindi x264 - AAC Mafiaking M2Tv

http://rapidpaid.com/fcd19653d40ef8a1/Lipstick_Under_My_Burkha_(2017)_720p_WebHDRip_x264_AAC_Mafiaking_M2Tv.mkv


[18+] Lipstick Under My Burkha (2017) - 720p - WebHD-Rip - Hindi x264 - AAC Mafiaking M2Tv
00

Dear visitor, you went to the site as unregistered user.
We recommend you to register or enter the site under your name.
Information
Customers are in the group Guests, can not leave comments in the news.
Adding a comment
Name:*
E-Mail:
Code:
reload, if the code cannot be seen
Enter the code: