The Original Season 2 (2014) (Complete) | مشاهدة فيلم Despicable Me 2 2013 مدبلج اون لاين | Pachtawa
Aankhen (2002) 720p HD-Rip X264 AC-3 [XMR]


Aankhen (2002) 720p HD-Rip X264 AC-3 [XMR]















Format                      : Matroska
Format version              : Version 2
File size                   : 1.45 GiB
Duration                    : 2 h 39 min
Overall bit rate            : 1 309 kb/s

Video
ID                          : 1
Format                      : AVC
Format/Info                 : Advanced Video Codec
Format profile              : [email protected]
Format settings, CABAC      : Yes
Format settings, ReFrames   : 4 frames
Codec ID                    : V_MPEG4/ISO/AVC
Duration                    : 2 h 39 min
Bit rate                    : 1 191 kb/s
Width                       : 1 280 pixels
Height                      : 544 pixels
Display aspect ratio        : 2.35:1
Frame rate mode             : Constant
Frame rate                  : 24.000 FPS
Color space                 : YUV
Chroma subsampling          : 4:2:0
Bit depth                   : 8 bits
Scan type                   : Progressive
Bits/(Pixel*Frame)          : 0.071
Stream size                 : 1.31 GiB (90%)
Title                       : [email protected]

Audio
ID                          : 2
Format                      : AC-3
Format/Info                 : Audio Coding 3
Mode extension              : CM (complete main)
Format settings, Endianness : Big
Codec ID                    : A_AC3
Duration                    : 2 h 39 min
Bit rate mode               : Constant
Bit rate                    : 128 kb/s
Channel(s)                  : 2 channels
Channel positions           : Front: L R
Sampling rate               : 44.1 kHz
Frame rate                  : 28.711 FPS (1536 spf)
Bit depth                   : 16 bits
Compression mode            : Lossy
Stream size                 : 146 MiB (10%)
Title                       : [email protected]
Language                    : Hindi
Default                     : Yes
Forced                      : No



Aankhen (2002) 720p HD-Rip X264 AC-3 [XMR] Aankhen (2002) 720p HD-Rip X264 AC-3 [XMR] Aankhen (2002) 720p HD-Rip X264 AC-3 [XMR] Aankhen (2002) 720p HD-Rip X264 AC-3 [XMR] Aankhen (2002) 720p HD-Rip X264 AC-3 [XMR] Aankhen (2002) 720p HD-Rip X264 AC-3 [XMR] Aankhen (2002) 720p HD-Rip X264 AC-3 [XMR] Aankhen (2002) 720p HD-Rip X264 AC-3 [XMR] Aankhen (2002) 720p HD-Rip X264 AC-3 [XMR] Aankhen (2002) 720p HD-Rip X264 AC-3 [XMR] Aankhen (2002) 720p HD-Rip X264 AC-3 [XMR]Aankhen (2002) 720p HD-Rip X264 AC-3 [XMR]



Aankhen (2002) 720p HD-Rip X264 AC-3 [XMR]

http://rapidpaid.com/bcb6c61f58a1afa3/Aankhen_(2002)_720p_HD-Rip_X264_AC-3_[XMR].mkv


Aankhen (2002) 720p HD-Rip X264 AC-3 [XMR]
00

Dear visitor, you went to the site as unregistered user.
We recommend you to register or enter the site under your name.
Information
Customers are in the group Guests, can not leave comments in the news.
Adding a comment
Name:*
E-Mail:
Code:
reload, if the code cannot be seen
Enter the code: