Computer Forensics Analysis Project | Escaflowne | Pandora Jae-Hyeok (Kim Nam-Gil) vive con su madre (Kim Young-Ae), su cuñada (Moon Jeong-Hee) y su sobrino Min-Jae (Bae Gang-Yoo) en una pequeña ciudad coreana. Para ganarse la vida, trabaja en una planta de energía nuclear local. Jae-Hyeok está preocupado por las condiciones allí, pero nadie en el gobierno le hace caso. De repente, un terremoto golpea el pequeño pueblo y causa explosiones en la planta de energía. La situación rápidamente desemboca en una incontrolable espiral de caos y destrucción, llevando a toda la nación a entrar en pánico. Para evitar otro desastre nuclear, Jae-Hyeok y sus colaboradores regresan a la central nuclear. ...
Fareb (2005) 1080p HD Hotstar DL AAC 2.0 Team ExDR Exclusive



Fareb (2005) 1080p HD Hotstar DL AAC 2.0 Team ExDR Exclusive



Format : MPEG-4
Format profile : Base Media
Codec ID : isom (isom/iso2/avc1/mp41)
File size : 3.48 GiB
Duration : 1 h 49 min
Overall bit rate mode : Variable
Overall bit rate : 4 562 kb/s
Writing application : Lavf56.40.101

Video
ID : 1
Format : AVC
Format/Info : Advanced Video Codec
Format profile : [email protected]
Format settings : CABAC / 1 Ref Frames
Format settings, CABAC : Yes
Format settings, RefFrames : 1 frame
Format settings, GOP : M=1, N=25
Codec ID : avc1
Codec ID/Info : Advanced Video Coding
Duration : 1 h 49 min
Bit rate mode : Constant
Bit rate : 4 500 kb/s
Width : 1 920 pixels
Height : 1 080 pixels
Display aspect ratio : 16:9
Frame rate mode : Variable
Frame rate : 25.000 FPS
Minimum frame rate : 0.166 FPS
Maximum frame rate : 25.000 FPS
Color space : YUV
Chroma subsampling : 4:2:0
Bit depth : 8 bits
Scan type : Progressive
Bits/(Pixel*Frame) : 0.087
Stream size : 3.43 GiB (99%)

Audio
ID : 2
Format : AAC
Format/Info : Advanced Audio Codec
Format profile : LC
Codec ID : mp4a-40-2
Duration : 1 h 49 min
Bit rate mode : Variable
Bit rate : 61.5 kb/s
Maximum bit rate : 63.8 kb/s
Channel(s) : 2 channels
Channel positions : Front: L R
Sampling rate : 48.0 kHz
Frame rate : 46.875 FPS (1024 SPF)
Compression mode : Lossy
Stream size : 48.1 MiB (1%)
Default : Yes
Alternate group : 1

Fareb (2005) 1080p HD Hotstar DL AAC 2.0 Team ExDR Exclusive
Fareb (2005) 1080p HD Hotstar DL AAC 2.0 Team ExDR Exclusive
Fareb (2005) 1080p HD Hotstar DL AAC 2.0 Team ExDR Exclusive
Fareb (2005) 1080p HD Hotstar DL AAC 2.0 Team ExDR Exclusive
Fareb (2005) 1080p HD Hotstar DL AAC 2.0 Team ExDR Exclusive
Fareb (2005) 1080p HD Hotstar DL AAC 2.0 Team ExDR Exclusive
Fareb (2005) 1080p HD Hotstar DL AAC 2.0 Team ExDR Exclusive


Fareb (2005) 1080p HD Hotstar DL AAC 2.0 Team ExDR Exclusive
Buy Premium Account From My Download Links And Get Resumable Support & SUPER Fastest Speed
http://rapidpaid.com/dfe626f8fde95c8a/Fareb_(2005)_1080p_HD_Hotstar_DL_AAC_2.0_Team_ExDR_Exclusive.mp4


Fareb (2005) 1080p HD Hotstar DL AAC 2.0 Team ExDR Exclusive
00

Dear visitor, you went to the site as unregistered user.
We recommend you to register or enter the site under your name.
Information
Customers are in the group Guests, can not leave comments in the news.
Adding a comment
Name:*
E-Mail:
Code:
reload, if the code cannot be seen
Enter the code: