Journalistic | November 4, 2017 | Ранэвэйс / Runaways (2017)
Home > Movie > Baadshaho (2017) 1080p - NetFlix - WebHD-Rip - x264 - AC3 - 5.1 - Esub Mafiaking M2Tv

Baadshaho (2017) 1080p - NetFlix - WebHD-Rip - x264 - AC3 - 5.1 - Esub Mafiaking M2Tv


13-01-2018, 06:42. Author: Maan770



Baadshaho (2017) 1080p - NetFlix - WebHD-Rip - x264 - AC3 - 5.1 - Esub Mafiaking M2Tv





Ratings: 5.6/10

Genere: Action, Adventure, History

General
Complete name : Baadshaho (2017) 1080p - NetFlix - WebHD-Rip - x264 - AC3 - 5.1 - Esub - Mafiaking - M2Tv.mkv
Format : Matroska
Format version : Version 4 / Version 2
File size : 1.91 GiB
Duration : 2 h 14 min
Overall bit rate : 2 025 kb/s
Movie name : Baadshaho (2017) 1080p - NetFlix - WebHD-Rip - x264 - AC3 - 5.1 - Esub - Mafiaking - M2Tv

Video
ID : 1
Format : AVC
Format/Info : Advanced Video Codec
Format profile : [email protected]
Format settings, CABAC : Yes
Format settings, RefFrames : 4 frames
Codec ID : V_MPEG4/ISO/AVC
Duration : 2 h 14 min
Bit rate : 1 800 kb/s
Width : 1 920 pixels
Height : 800 pixels
Display aspect ratio : 2.40:1
Frame rate mode : Constant
Frame rate : 24.000 FPS
Color space : YUV
Chroma subsampling : 4:2:0
Bit depth : 8 bits
Scan type : Progressive
Bits/(Pixel*Frame) : 0.049
Stream size : 1.69 GiB (89%)
Title : Mafiaking
Language : Hindi
Default : Yes
Forced : No

Audio
ID : 2
Format : AC-3
Format/Info : Audio Coding 3
Format settings, Endianness : Big
Codec ID : A_AC3
Duration : 2 h 14 min
Bit rate mode : Constant
Bit rate : 224 kb/s
Channel(s) : 6 channels
Channel positions : Front: L C R, Side: L R, LFE
Sampling rate : 48.0 kHz
Frame rate : 31.250 FPS (1536 SPF)
Bit depth : 16 bits
Compression mode : Lossy
Stream size : 216 MiB (11%)
Title : Mafiaking
Language : Hindi
Service kind : Complete Main
Default : Yes
Forced : No


Baadshaho (2017) 1080p - NetFlix - WebHD-Rip - x264 - AC3 - 5.1 - Esub Mafiaking M2Tv Baadshaho (2017) 1080p - NetFlix - WebHD-Rip - x264 - AC3 - 5.1 - Esub Mafiaking M2Tv Baadshaho (2017) 1080p - NetFlix - WebHD-Rip - x264 - AC3 - 5.1 - Esub Mafiaking M2Tv Baadshaho (2017) 1080p - NetFlix - WebHD-Rip - x264 - AC3 - 5.1 - Esub Mafiaking M2Tv Baadshaho (2017) 1080p - NetFlix - WebHD-Rip - x264 - AC3 - 5.1 - Esub Mafiaking M2Tv Baadshaho (2017) 1080p - NetFlix - WebHD-Rip - x264 - AC3 - 5.1 - Esub Mafiaking M2Tv Baadshaho (2017) 1080p - NetFlix - WebHD-Rip - x264 - AC3 - 5.1 - Esub Mafiaking M2Tv Baadshaho (2017) 1080p - NetFlix - WebHD-Rip - x264 - AC3 - 5.1 - Esub Mafiaking M2Tv Baadshaho (2017) 1080p - NetFlix - WebHD-Rip - x264 - AC3 - 5.1 - Esub Mafiaking M2Tv Baadshaho (2017) 1080p - NetFlix - WebHD-Rip - x264 - AC3 - 5.1 - Esub Mafiaking M2Tv Baadshaho (2017) 1080p - NetFlix - WebHD-Rip - x264 - AC3 - 5.1 - Esub Mafiaking M2Tv Baadshaho (2017) 1080p - NetFlix - WebHD-Rip - x264 - AC3 - 5.1 - Esub Mafiaking M2Tv Baadshaho (2017) 1080p - NetFlix - WebHD-Rip - x264 - AC3 - 5.1 - Esub Mafiaking M2Tv Baadshaho (2017) 1080p - NetFlix - WebHD-Rip - x264 - AC3 - 5.1 - Esub Mafiaking M2Tv Baadshaho (2017) 1080p - NetFlix - WebHD-Rip - x264 - AC3 - 5.1 - Esub Mafiaking M2Tv

Baadshaho (2017) 1080p - NetFlix - WebHD-Rip - x264 - AC3 - 5.1 - Esub Mafiaking M2Tv

http://rapidpaid.com/1ff223efd21433ef/Baadshaho.2017.1080p.NF.WebHD.AVC.5.1.AC3.ESub-M2Tv_ExCluSivE.mkv


Baadshaho (2017) 1080p - NetFlix - WebHD-Rip - x264 - AC3 - 5.1 - Esub Mafiaking M2Tv

Back